« Merry Xmas From The The | Main | Ivan Neville's Dumpstaphunk »

Where's My Mule?

Well, the past two nights it's been at the Pantages in Minneapolis.  I am posting both here, and was in attendance for the second night.  The Drive-By Truckers opened for the Hold Steady at 1st Ave last night, and Patterson dropped in for the encore.  I should also add that Smokin' Joe Kubek also played a gig last night.  I wish he could have also dropped in.  Coming soon: a blistering opener from Saturday by BackDoor Slam, a tremendous British blues trio.  Anyway, an impressive night! 

 

Gov't Mule
Pantages Theatre
Minneapolis, Minnesota
11/14/2008

Source: Schoeps CCM4V'S(din)>Lunatec V2>Sound Devices 722 (24/48)
Location: FOB/DFC/KFC/ZFC/AARP Row F, Between Seats 108 & 109, 7' High
DSP: Sound Devices 722>Sound Forge 7.0>CD Wave>flac(16)
Recorded By: Z-Man
Seeded By: Z-Man

Disc I 1st Set

01 Mr. Man >
02 Brand New Angel
03 About to Rage
04 Monkey Hill
05 Devil Likes it Slow
06 Painted Silver Light
07 No Need to Suffer
08 Kind of Bird

Disc II 2nd Set

01 *Jam >
02 The Shape I'm In >
03 Fool's Moon
04 Trane >
05 Third Stone From the Sun Jam >
06 Trane >
07 Eternity's Breath >
08 Trane >
09 St. Stephen Jam >
10 Trane >

Disc III 2nd Set Con't

01 Drum Solo >
02 Goin' Out West
03 Mule >
04 Superstition >
05 Mule >
06 Soulshine
Encore:
07 Banter
08 #Have You Ever Loved A Woman >
09 #Send You Back to Georgia

* Danny Louis on Trumpet
# With Davy Knowles of Back Door Slam on Guitar

govtmule2008-11-14d01t01.flac:a978f7212a19faf612a201e77dd16c19
govtmule2008-11-14d01t02.flac:060f2e56b24e7d497da299afcd98338d
govtmule2008-11-14d01t03.flac:a6732669cca89b69f33dea1edffa09f8
govtmule2008-11-14d01t04.flac:fbc3c46cfa317e65414d45c3c06801ac
govtmule2008-11-14d01t05.flac:aa2a656608f16d453b91339bbbf35d6a
govtmule2008-11-14d01t06.flac:b894580a7dc29afe3462a8f2de770a44
govtmule2008-11-14d01t07.flac:b982e23082270c6e54288952322af6e6
govtmule2008-11-14d01t08.flac:fa0fefe58b491e4cf81c921cfdd2ce57
govtmule2008-11-14d02t01.flac:c0007f05a80095335dd8e0bbee463249
govtmule2008-11-14d02t02.flac:37de33f91ee9f91e79371a4acf1e3714
govtmule2008-11-14d02t03.flac:6ece6c5b5edaad686ae7b51a9dba7d9b
govtmule2008-11-14d02t04.flac:dd5d35fe5f87ff5b9dcb06748ac66c82
govtmule2008-11-14d02t05.flac:803e0aaab1a439d2a6c81ff69f60db3f
govtmule2008-11-14d02t06.flac:20164b73e242f5bd809561ad0cce213e
govtmule2008-11-14d02t07.flac:1df726b7031e60e093b13a77c8083f43
govtmule2008-11-14d02t08.flac:8eb1139f1d6bc909d9f38a49cb9b42ca
govtmule2008-11-14d02t09.flac:0040a3cb44081a0da5e712ef9797a989
govtmule2008-11-14d02t10.flac:323b034535c071b919ae1beeb2ff8ad7
govtmule2008-11-14d03t01.flac:97bc4cc6d77b5c94183109fbe8ceb9e6
govtmule2008-11-14d03t02.flac:4c03638e83c59a8bf067e57c318f1438
govtmule2008-11-14d03t03.flac:a0bdfb80bae6e985d399f47bbed9ef39
govtmule2008-11-14d03t04.flac:0cfa0076ae72c8ccc7b82ab061194255
govtmule2008-11-14d03t05.flac:c8fca5c32eaf0c6746936ecc583f14ca
govtmule2008-11-14d03t06.flac:548eade55415b6a42e7733bcf74730a7
govtmule2008-11-14d03t07.flac:c6748f708a467bc905fec30847c64e9b
govtmule2008-11-14d03t08.flac:c725ed694327711e5b0f84ab44b80698
govtmule2008-11-14d03t09.flac:28604982c92fa3e6bf6d19bc900b1642

shntool 3.0.4
Copyright (C) 2000-2007 Jason Jordan <shnutils@freeshell.org>

length expanded size cdr WAVE problems fmt ratio filename
4:37.54 48989852 B --- -- ---xx flac 0.5267 govtmule2008-11-14d01t01.flac
7:08.15 75534524 B --- -- ---xx flac 0.5411 govtmule2008-11-14d01t02.flac
12:28.12 131975468 B --- -- ---xx flac 0.4652 govtmule2008-11-14d01t03.flac
4:48.27 50866748 B --- -- ---xx flac 0.5108 govtmule2008-11-14d01t04.flac
14:07.72 149580188 B --- -- ---xx flac 0.4717 govtmule2008-11-14d01t05.flac
7:05.49 75085292 B --- -- ---xx flac 0.4873 govtmule2008-11-14d01t06.flac
9:02.41 95705276 B --- -- ---xx flac 0.4693 govtmule2008-11-14d01t07.flac
14:19.72 151696988 B --- -- ---xx flac 0.4911 govtmule2008-11-14d01t08.flac
2:23.00 25225244 B --- -- ---xx flac 0.4406 govtmule2008-11-14d02t01.flac
6:55.36 73290716 B --- -- ---xx flac 0.4733 govtmule2008-11-14d02t02.flac
6:16.56 66458156 B --- -- ---xx flac 0.4945 govtmule2008-11-14d02t03.flac
6:37.06 70044956 B --- -- ---xx flac 0.5081 govtmule2008-11-14d02t04.flac
2:27.58 26067260 B --- -- ---xx flac 0.4747 govtmule2008-11-14d02t05.flac
0:38.05 6715004 B --- -- ---xx flac 0.4005 govtmule2008-11-14d02t06.flac
3:23.43 35910380 B --- -- ---xx flac 0.5251 govtmule2008-11-14d02t07.flac
1:35.20 16805084 B --- -- ---xx flac 0.3738 govtmule2008-11-14d02t08.flac
4:58.39 52658972 B --- -- ---xx flac 0.4928 govtmule2008-11-14d02t09.flac
0:36.39 6442172 B --- -- ---xx flac 0.5214 govtmule2008-11-14d02t10.flac
10:08.27 107314748 B --- -- ---xx flac 0.4753 govtmule2008-11-14d03t01.flac
7:24.41 78418076 B --- -- ---xx flac 0.5001 govtmule2008-11-14d03t02.flac
6:18.53 66803900 B --- -- ---xx flac 0.4705 govtmule2008-11-14d03t03.flac
2:41.55 28529804 B --- -- ---xx flac 0.5059 govtmule2008-11-14d03t04.flac
0:53.37 9436268 B --- -- ---xx flac 0.5144 govtmule2008-11-14d03t05.flac
7:26.72 78843788 B --- -- ---xx flac 0.4940 govtmule2008-11-14d03t06.flac
1:56.20 20509484 B --- -- ---xx flac 0.3840 govtmule2008-11-14d03t07.flac
10:19.57 109325708 B --- -- ---xx flac 0.4294 govtmule2008-11-14d03t08.flac
9:28.24 100251692 B --- -- ---xx flac 0.4985 govtmule2008-11-14d03t09.flac
166:08.55 1758485748 B 0.4828 (27 files)

 =======================================================

Back Door Slam
Pantages Theatre
Minneapolis, Minnesota
11/14/2008

Source: Schoeps CCM4V'S(din)>Lunatec V2>Sound Devices 722 (24/48)
Location: FOB/DFC/KFC/ZFC/AARP Row F, Between Seats 108 & 109, 7' High
DSP: Sound Devices 722>Sound Forge 7.0>CD Wave>flac(16)
Recorded By: Z-Man
Seeded By: Z-Man

Disc I 1st Set

01 Outside Woman Blues >
02
03 Come Home
04 What In The World
05 It'll All Come Around

backdoorslam2008-11-14d01t01.flac:5fa7eb71e4b3dc46e63630757c711979
backdoorslam2008-11-14d01t02.flac:0d1b451a1662b945f19f78397b0d7964
backdoorslam2008-11-14d01t03.flac:9b2e0c9357ec068ba7534dee8583d6fb
backdoorslam2008-11-14d01t04.flac:fbb08a67264521db5cd7534ac87525b3
backdoorslam2008-11-14d01t05.flac:bf0fdc7b1de5c041b908d2aec928b95d

shntool 3.0.4
Copyright (C) 2000-2007 Jason Jordan <shnutils@freeshell.org>

    length     expanded size    cdr  WAVE problems  fmt   ratio  filename
     4:19.71       45854636 B   ---   --   ---xx   flac  0.5580  backdoorslam2008-11-14d01t01.flac
     5:19.42       56370428 B   ---   --   ---xx   flac  0.5355  backdoorslam2008-11-14d01t02.flac
     4:50.57       51290108 B   ---   --   ---xx   flac  0.5155  backdoorslam2008-11-14d01t03.flac
    10:18.13      109045820 B   ---   --   ---xx   flac  0.5021  backdoorslam2008-11-14d01t04.flac
     6:18.53       66803900 B   ---   --   ---xx   flac  0.5436  backdoorslam2008-11-14d01t05.flac
    31:07.11      329364892 B                            0.5261  (5 files)

=======================================================

Gov't Mule
Pantages Theatre
Minneapolis, Minnesota
11/15/2008

Source: Schoeps CCM4V'S(din)>Lunatec V2>Sound Devices 722 (24/48)
Location: FOB/DFC/KFC/ZFC/AARP Row F, Between Seats 107 & 108, 7' High
DSP: Sound Devices 722>Sound Forge 7.0>CD Wave>flac(16)
Recorded By: Z-Man
Seeded By: Z-Man

Disc I 1st Set

01 Streamline Woman
02 Lola Leave Your Light On
03 Bad Little Doggie >
04 How Many More Years >
05 Higher Ground >
06 How Many More Years
07 Far Away
08 Temporary Saint >
09 Scomule >
10 Dance to the Music >
11 Scomule
12 Hunger Strike >
13 Dear Mr. Fantasy >
14 Hunger Strike >
15 *Take Me To The River

Disc II 2nd Set

01 No Celebration >
02 #Tryin' Not to Follow >
03 Helter Skelter >
04 Jam (Jorgen Playing Sabbath on Bass) >
05 @Have a Cigar >
06 Drum Solo >

Disc III 2nd Set Con't

01 Jam >
02 Brighter Days >
03 Like Flies >
04 Blindman In The Dark
Encore:
05 Tuning/Crowd
06 $Cortez the Killer

* With Davy Knowles of Back Door Slam on Guitar
# With Danny Louis on Guitar
@ With Matt Abts on Vocals
$ With Patterson Hood of the Drive By Truckers on Guitar and Vocals

govtmule2008-11-15d01t01.flac:12ba47632218349e1c37b47a650378a1
govtmule2008-11-15d01t02.flac:c90115146fa5eb16618bd4bac49830a7
govtmule2008-11-15d01t03.flac:d18f351371166ca3a22948ea73a37a45
govtmule2008-11-15d01t04.flac:f32a4d8b5a7eac158561d2344f1963f6
govtmule2008-11-15d01t05.flac:1f0f3325081bc40501a64714634bec7a
govtmule2008-11-15d01t06.flac:a62047c8bdba4606f86e0b17943dcb05
govtmule2008-11-15d01t07.flac:06e3d1741e38dc1edec0d3f116e9b9f2
govtmule2008-11-15d01t08.flac:1287b2cb217896a71d1644ab102a3d5f
govtmule2008-11-15d01t09.flac:0b5954afcb83d659bf03ca62899854cf
govtmule2008-11-15d01t10.flac:732f05ec719c88f5952916cdadf0bf40
govtmule2008-11-15d01t11.flac:539ffb45e931499611c8c6aa9e7b7e2b
govtmule2008-11-15d01t12.flac:4eb712481d321a9c18dd7438c75f2633
govtmule2008-11-15d01t13.flac:099fe03e5c18ba77c269eefb6e76095d
govtmule2008-11-15d01t14.flac:53d290d8895cb126eb6a720624c8e42e
govtmule2008-11-15d01t15.flac:0448c9acd487a0e1482676fa87ad9a1a
govtmule2008-11-15d02t01.flac:f438b7b25b790d4a3f00fc23c884bf5a
govtmule2008-11-15d02t02.flac:51093e850a67ab62eddbd52ba328c788
govtmule2008-11-15d02t03.flac:a6d3cdc00a593bb126a31de333be318c
govtmule2008-11-15d02t04.flac:1e23f851b4dad014fe83b7b851e346b5
govtmule2008-11-15d02t05.flac:ba85b4dec22966373c6f8bdf35074e42
govtmule2008-11-15d02t06.flac:34ddf8cddc09b6edbaab3de1af196855
govtmule2008-11-15d03t01.flac:8687eea2f7211d94eaa0240edd34431f
govtmule2008-11-15d03t02.flac:330a2020ac6d9e50392c043a254f2fd4
govtmule2008-11-15d03t03.flac:38a2497f2cf4e6700783a079f131adad
govtmule2008-11-15d03t04.flac:c447073348168f47bbf793aafdbcaf98
govtmule2008-11-15d03t05.flac:6112e5e8aa571b647eb3fff64af3e072
govtmule2008-11-15d03t06.flac:701f67030b0bc2bea8979a4d069b45bc

shntool 3.0.4
Copyright (C) 2000-2007 Jason Jordan <shnutils@freeshell.org>

length expanded size cdr WAVE problems fmt ratio filename
6:20.53 67156700 B --- -- ---xx flac 0.5263 govtmule2008-11-15d01t01.flac
9:22.41 99233276 B --- -- ---xx flac 0.4773 govtmule2008-11-15d01t02.flac
3:51.54 40875452 B --- -- ---xx flac 0.5096 govtmule2008-11-15d01t03.flac
5:14.08 55408460 B --- -- ---xx flac 0.4466 govtmule2008-11-15d01t04.flac
1:04.16 11327276 B --- -- ---xx flac 0.3806 govtmule2008-11-15d01t05.flac
2:56.37 31133468 B --- -- ---xx flac 0.4858 govtmule2008-11-15d01t06.flac
11:10.55 118317404 B --- -- ---xx flac 0.3927 govtmule2008-11-15d01t07.flac
5:37.65 59599724 B --- -- ---xx flac 0.4971 govtmule2008-11-15d01t08.flac
7:37.61 80758316 B --- -- ---xx flac 0.5036 govtmule2008-11-15d01t09.flac
1:01.00 10760444 B --- -- ---xx flac 0.5384 govtmule2008-11-15d01t10.flac
2:12.13 23315420 B --- -- ---xx flac 0.4246 govtmule2008-11-15d01t11.flac
4:37.67 49020428 B --- -- ---xx flac 0.4631 govtmule2008-11-15d01t12.flac
2:25.10 25601564 B --- -- ---xx flac 0.5095 govtmule2008-11-15d01t13.flac
1:36.23 16988540 B --- -- ---xx flac 0.5258 govtmule2008-11-15d01t14.flac
7:48.67 82712828 B --- -- ---xx flac 0.4977 govtmule2008-11-15d01t15.flac
7:21.00 77792444 B --- -- ---xx flac 0.3770 govtmule2008-11-15d02t01.flac
5:12.41 55133276 B --- -- ---xx flac 0.4977 govtmule2008-11-15d02t02.flac
4:06.41 43490876 B --- -- ---xx flac 0.5284 govtmule2008-11-15d02t03.flac
1:09.48 12284540 B --- -- ---xx flac 0.4072 govtmule2008-11-15d02t04.flac
5:13.55 55342604 B --- -- ---xx flac 0.5263 govtmule2008-11-15d02t05.flac
10:02.44 106296332 B --- -- ---xx flac 0.4716 govtmule2008-11-15d02t06.flac
4:44.05 50109404 B --- -- ---xx flac 0.3946 govtmule2008-11-15d03t01.flac
5:29.04 58045052 B --- -- ---xx flac 0.5087 govtmule2008-11-15d03t02.flac
5:39.51 59919596 B --- -- ---xx flac 0.4440 govtmule2008-11-15d03t03.flac
16:20.24 172928492 B --- -- ---xx flac 0.4399 govtmule2008-11-15d03t04.flac
1:10.11 12373916 B --- -- ---xx flac 0.3852 govtmule2008-11-15d03t05.flac
14:09.58 149900060 B --- -- ---xx flac 0.4234 govtmule2008-11-15d03t06.flac
153:36.52 1625825892 B 0.4614 (27 files)

TrackBack

TrackBack URL for this entry:
http://mclaincausey.net.p2.hostingprod.com/blog-mt/mt-tb.fcgi/15

Comments

scoozie!!
that means super rad, out here!!

Post a comment

(If you haven't left a comment here before, you may need to be approved by the site owner before your comment will appear. Until then, it won't appear on the entry. Thanks for waiting.)