« Ivan Neville's Dumpstaphunk | Main | STS9 Hotty Toddy »

More Great Minneapolis Gigs From Last Weekend

This past weekend has been a musical bonanza for the Twin Cities.  Friday, it was Gov't. Mule with BackDoor Slam, and the Australian Pink Floyd Show--take your pick.  Saturday, it was again Mule and Slam, and then Drive-By Truckers and the The Hold Steady.  Sunday, again, the Truckers and Hold Steady.

I am posting an afternoon record-store gig Patterson Hood of the Truckers did, followed by that night's Truckers show.

I don't know who Z-man is, but he gets around (he was at both nights of Mule, PAtterson's solo gig, and Sunday's Truckers/Hold Steady show--wow!) and has Scoeps MK4v's, which are great mics.  The Mule shows I've posted as well as the forthcoming BackDoor Slam opener were all great recordings by him.  Whoever you are, thanks!

==================================================================

 

Patterson Hood Solo Acoustic
Treehouse Records
Minneapolis, Minnesota
11/16/2008

Source: Schoeps CCM4V'S(din)>Lunatec V2>Sound Devices 722 (24/48)
Location: FOP/DFC/KFC/ZFC/AARP 8' From Patterson, 6' High
DSP: Sound Devices 722>Sound Forge 7.0>CD Wave>flac(16)
Recorded By: Z-Man
Seeded By: Z-Man

Disc I

01 Tuning
02 Heathens
03 Nine Bullets
04 Banter - Disney
05 Uncle Disney
06 The Opening Act
07 Grand Daddy
08 Banter - Living Bubba
09 Living Bubba
10 Sink Hole

pattersonhood2008-11-16d01t01.flac:98d55f6e5eff24213227e5a4b535d8e8
pattersonhood2008-11-16d01t02.flac:d6413161e5b808aae5d630f60d6d1c73
pattersonhood2008-11-16d01t03.flac:6f898ddfa51781f78995ae630c821625
pattersonhood2008-11-16d01t04.flac:43a8833ad9559260cf8f708ec7cc9b3a
pattersonhood2008-11-16d01t05.flac:88764b218e24c7655ce7c1e35dd9c29a
pattersonhood2008-11-16d01t06.flac:57d632ec4b554229f0f3978646bfb812
pattersonhood2008-11-16d01t07.flac:50bbcbe3bd34ef5f369d131e78f53390
pattersonhood2008-11-16d01t08.flac:d2f328e3de85c3cea96ca36d4d77f086
pattersonhood2008-11-16d01t09.flac:28aface0d108023452b2345431c6720d
pattersonhood2008-11-16d01t10.flac:2c2ca98a58cfa718214688d21054a528

shntool 3.0.4
Copyright (C) 2000-2007 Jason Jordan <shnutils@freeshell.org>

    length     expanded size    cdr  WAVE problems  fmt   ratio  filename
     0:50.73        8991740 B   ---   --   ---xx   flac  0.3585  pattersonhood2008-11-16d01t01.flac
     4:23.34       46473212 B   ---   --   ---xx   flac  0.4317  pattersonhood2008-11-16d01t02.flac
     4:16.55       45287804 B   ---   --   ---xx   flac  0.5259  pattersonhood2008-11-16d01t03.flac
     1:11.12       12552668 B   ---   --   ---xx   flac  0.2683  pattersonhood2008-11-16d01t04.flac
     2:58.58       31535660 B   ---   --   ---xx   flac  0.3480  pattersonhood2008-11-16d01t05.flac
     6:33.08       69344060 B   ---   --   ---xx   flac  0.3902  pattersonhood2008-11-16d01t06.flac
     3:38.29       38523452 B   ---   --   ---xx   flac  0.3483  pattersonhood2008-11-16d01t07.flac
     1:12.18       12743180 B   ---   --   ---xx   flac  0.2652  pattersonhood2008-11-16d01t08.flac
     5:55.42       62720828 B   ---   --   ---xx   flac  0.5344  pattersonhood2008-11-16d01t09.flac
     4:55.06       52052156 B   ---   --   ---xx   flac  0.3650  pattersonhood2008-11-16d01t10.flac
    35:55.35      380224760 B                            0.4151  (10 files)

==================================================================

 

Drive By Truckers
First Avenue
Minneapolis, Minnesota
11/16/2008

Source: Schoeps CCM4V'S(din)>Lunatec V2>Sound Devices 722 (24/48)
Location: FOB/DFC/KFC/ZFC/AARP Inside the Cage in Front of Soundboard, 7' High
DSP: Sound Devices 722>Sound Forge 7.0>CD Wave>flac(16)
Recorded By: Z-Man
Seeded By: Z-Man

Disc I

01 Intro
02 Marry Me
03 That Man I Shot
04 Self Destructive Zones >
05 ?
06 The Company I Keep
07 Carl Perkin's Cadillac >
08 The Righteous Path >
09 Sink Hole
10 Ghost to Most 

Disc II

01 The Home Front >
02 The Living Bubba >
03 Zip City >
04 Dead, Drunk, and Naked >
05 ? >
06 Hell No I Ain't Happy >
07 Three Dimes Down >
08 Lookout Mountain

drivebytruckers2008-11-16d01t01.flac:82145590d7f2ec0c681a798c767875f7
drivebytruckers2008-11-16d01t02.flac:6e4f5e68d5a0ea6669813badcb25fab8
drivebytruckers2008-11-16d01t03.flac:98cc9d3c046e85cca8aaf92e70bfc5d6
drivebytruckers2008-11-16d01t04.flac:9d4180d7c6583c9153faa7e7948dec4e
drivebytruckers2008-11-16d01t05.flac:1e291d8853810e983f520b6a5851785c
drivebytruckers2008-11-16d01t06.flac:69e8d60ab26e6ef47098299de73e89b2
drivebytruckers2008-11-16d01t07.flac:681f7bcc71ddc591b075dc7e1075084e
drivebytruckers2008-11-16d01t08.flac:50b2e27da10dbc05263529906913e72b
drivebytruckers2008-11-16d01t09.flac:b63e5c950d683c1163fc3a9912185133
drivebytruckers2008-11-16d01t10.flac:6a15ab8f6ae10db59963b6101566d084
drivebytruckers2008-11-16d02t01.flac:484a7ad3b4895ba228d43b838c384d36
drivebytruckers2008-11-16d02t02.flac:7e9143c2c890d2af89239eb18ed192cb
drivebytruckers2008-11-16d02t03.flac:8bcb3cd4353665f14eaa5ffd406c977f
drivebytruckers2008-11-16d02t04.flac:7e5c655aa13ce2da54bd95330c1d73ae
drivebytruckers2008-11-16d02t05.flac:fe681747f01f3ef2f91727d8eefcd485
drivebytruckers2008-11-16d02t06.flac:d5f34a7901af7cb58c1947b93a0cb97a
drivebytruckers2008-11-16d02t07.flac:96a9588ef8d6458530605179955daaa3
drivebytruckers2008-11-16d02t08.flac:7bd66ead8b4a983a5bc5fb89da5280cb

shntool 3.0.4
Copyright (C) 2000-2007 Jason Jordan <shnutils@freeshell.org>

    length     expanded size    cdr  WAVE problems  fmt   ratio  filename
     1:13.13       12907820 B   ---   --   ---xx   flac  0.4372  drivebytruckers2008-11-16d01t01.flac
     5:50.64       61890572 B   ---   --   ---xx   flac  0.5755  drivebytruckers2008-11-16d01t02.flac
     5:32.42       58663628 B   ---   --   ---xx   flac  0.5705  drivebytruckers2008-11-16d01t03.flac
     3:48.58       40355660 B   ---   --   ---xx   flac  0.5678  drivebytruckers2008-11-16d01t04.flac
     5:12.41       55133276 B   ---   --   ---xx   flac  0.5187  drivebytruckers2008-11-16d01t05.flac
     2:40.69       28386332 B   ---   --   ---xx   flac  0.4769  drivebytruckers2008-11-16d01t06.flac
     5:37.16       59484476 B   ---   --   ---xx   flac  0.5325  drivebytruckers2008-11-16d01t07.flac
     4:22.68       46376780 B   ---   --   ---xx   flac  0.5905  drivebytruckers2008-11-16d01t08.flac
     4:24.31       46642556 B   ---   --   ---xx   flac  0.5483  drivebytruckers2008-11-16d01t09.flac
     4:45.47       50384588 B   ---   --   ---xx   flac  0.5306  drivebytruckers2008-11-16d01t10.flac
     3:33.73       37744940 B   ---   --   ---xx   flac  0.4785  drivebytruckers2008-11-16d02t01.flac
     6:27.13       68297420 B   ---   --   ---xx   flac  0.5484  drivebytruckers2008-11-16d02t02.flac
     5:23.28       57043100 B   ---   --   ---xx   flac  0.5648  drivebytruckers2008-11-16d02t03.flac
     7:14.58       76694060 B   ---   --   ---xx   flac  0.5517  drivebytruckers2008-11-16d02t04.flac
     3:38.52       38577548 B   ---   --   ---xx   flac  0.6238  drivebytruckers2008-11-16d02t05.flac
     5:14.63       55537820 B   ---   --   ---xx   flac  0.5696  drivebytruckers2008-11-16d02t06.flac
     3:03.61       32424716 B   ---   --   ---xx   flac  0.5821  drivebytruckers2008-11-16d02t07.flac
     6:06.64       64712972 B   ---   --   ---xx   flac  0.5840  drivebytruckers2008-11-16d02t08.flac
    84:12.36      891258264 B                            0.5538  (18 files)


 

TrackBack

TrackBack URL for this entry:
http://mclaincausey.net.p2.hostingprod.com/blog-mt/mt-tb.fcgi/17

Post a comment

(If you haven't left a comment here before, you may need to be approved by the site owner before your comment will appear. Until then, it won't appear on the entry. Thanks for waiting.)